.
.

Chuyên Dưa leo Baby Hà Lan, Đ/c ấp 4 Sông Trầu, Trảng Bom, Đồng Nai ĐT 0973764405!


Đăng ký thành viên để hiển thị
các nội dung trong diễn đàn...
Chưa Thành viên:

Thành viên:


#sidebar_left > p > img
kkkk

//không cho lưu trang web

Latest topics

» tiemview crack
by macsuong 28/5/2018, 2:30 pm

» cà chua bi trồng hữu cơ rất an toàn cho người dùng
by macsuong 28/5/2018, 9:06 am

» Lệnh điều khiển máy từ xa
by macsuong 28/5/2018, 9:05 am

» TRẢNG BOM NƠI TÔI SỐNG
by macsuong 27/4/2018, 1:01 am

» CÀ CHUA SÔ CÔ LA GIỐNG NGA
by macsuong 27/4/2018, 12:26 am

» CÀ CHUA F1 RED GIỐNG NGA
by macsuong 27/4/2018, 12:24 am

» cụ thể là chép vào thư mục này
by macsuong 1/11/2017, 10:55 am

» Địa chỉ facebook
by macsuong 1/11/2017, 10:45 am

» Các trích nướng loại 1
by macsuong 8/2/2017, 2:18 pm

» Cá thu loại 1
by macsuong 8/2/2017, 1:47 pm

» Đặc Sản quê Hương Xứ Nghệ
by macsuong 8/2/2017, 11:03 am

» Cảnh sát biển Việt Nam theo dõi Hải Dương-981 vào Biển Đông
by macsuong 29/12/2015, 3:52 pm

» File word bị lội "This error message can appear if the document you are
by ngoctram.nhim 19/7/2015, 10:02 pm

» Những câu châm ngôn cuộc sống ý nghĩa
by macsuong 11/11/2014, 11:29 am

» SẢN PHẨM MỚI 10/2014
by bimbip 4/10/2014, 8:17 pm

» Bảng báo giá sản phẩm mỹ nghệ
by macsuong 30/5/2014, 4:31 pm

» Cảm ơn Trung Quốc vì đưa giàn khoan đến thềm lục địa Việt Nam và sau đó...
by macsuong 9/5/2014, 10:16 am

» TẠI SAO TÔI KHÔNG VÀO ĐƯỢC DIỄN ĐÀN?
by gacon 3/12/2013, 9:46 pm

» .....CHÚC MỪNG....
by gacon 3/12/2013, 9:43 pm

» Tạo chương trình khởi động cùng window 7
by macsuong 23/10/2013, 11:01 am


You are not connected. Please login or register

. » Download Phim-Video » Chiến tranh-Viễn tưởng » Avatar.3D.(2010-12gb nhé

Avatar.3D.(2010-12gb nhé

Go down  Thông điệp [Trang 1 trong tổng số 1 trang]

1 Avatar.3D.(2010-12gb nhé on 17/8/2011, 10:48 am

bimbip

avatar
.
.




Complete name : Avatar.3D.(2010).1080p.x264.Side.by.Side.12.86.GB Upload by G_D.mkv
Format : Matroska
File size : 12.9 GiB
Duration : 2h 41mn
Overall bit rate : 11.4 Mbps
Encoded date : UTC 2010-11-05 11:34:31
Writing application : mkvmerge v4.3.0 ('Escape from the Island') gemaakt op Sep 5 2010 10:30:51
Writing library : libebml v1.0.0 + libmatroska v1.0.0

Video
ID : 1
Format : AVC
Format/Info : Advanced Video Codec
Format profile : High@L4.0
Format settings, CABAC : Yes
Format settings, ReFrames : 4 frames
Format settings, GOP : M=4, N=16
Codec ID : V_MPEG4/ISO/AVC
Duration : 2h 41mn
Bit rate : 10 000 Kbps
Width : 1 920 pixels
Height : 1 080 pixels
Display aspect ratio : 16:9
Frame rate mode : Variable
Frame rate : 23.976 fps
Color space : YUV
Chroma subsampling : 4:2:0
Bit depth : 8 bits
Scan type : Progressive
Bits/(Pixel*Frame) : 0.201
Stream size : 10.9 GiB (85%)
Writing library : x264 core 107 r1745 4785e8e
Encoding settings : cabac=1 / ref=3 / deblock=1:0:0 / analyse=0x3:0x113 / me=hex / subme=7 / psy=1 / psy_rd=1.00:0.00 / mixed_ref=1 / me_range=16 / chroma_me=1 / trellis=1 / 8x8dct=1 / cqm=0 / deadzone=21,11 / fast_pskip=1 / chroma_qp_offset=-2 / threads=4 / sliced_threads=0 / nr=0 / decimate=1 / interlaced=0 / constrained_intra=0 / bframes=3 / b_pyramid=2 / b_adapt=1 / b_bias=0 / direct=1 / weightb=1 / open_gop=0 / weightp=2 / keyint=250 / keyint_min=25 / scenecut=40 / intra_refresh=0 / rc_lookahead=40 / rc=abr / mbtree=1 / bitrate=10000 / ratetol=1.0 / qcomp=0.60 / qpmin=10 / qpmax=51 / qpstep=4 / ip_ratio=1.41 / aq=1:1.00

Audio
ID : 2
Format : DTS
Format/Info : Digital Theater Systems
Codec ID : A_DTS
Duration : 2h 41mn
Bit rate mode : Constant
Bit rate : 1 510 Kbps
Channel(s) : 6 channels
Channel positions : Front: L C R, Side: L R, LFE
Sampling rate : 48.0 KHz
Bit depth : 24 bits
Compression mode : Lossy
Stream size : 1.71 GiB (13%)


Giới Thiệu

Nội dung :
Đạo diễn: James Cameron
Diễn viên: Zoe Saldana, Sam Worthington, Sigourney Weaver, Michelle Rodriguez
Nhà sản xuất: Twentieth Century Fox Film Corporation
Thể loại: Hành động, Phiêu lưu, Viễn tưởng
Độ dài: 166 phút
Quốc gia: Mỹ
Năm sản xuất: 2009


Avatar (biểu tượng đại diện) xoay quanh chuyến hành trình thám hiểm của Jake Sully (Sam Worthington), cựu sĩ quan thủy quân bị thương trong một cuộc chiến trên Trái Đất và sau đó bị liệt nửa thân dưới. Jake được chọn tham dự vào dự án Avatar, chương trình cấy gen của con người vào cư dân bản địa Na'vi nhằm mục đích giúp con người dễ dàng tiếp xúc và nghiên cứu Pandora và người Na'vi.

Người Na'Vi có hình thể tương đối lạ so với người trái đất, với nước da màu xanh dương và cao tới 3m, họ sống rất chan hòa và yêu quý thiên nhiên. Nhưng đoàn người trái đất vì mục đích khai thác một vật liệu quý hiếm của hành tinh Pandora đã bất chấp tất cả những hậu quả xấu tác động lên môi trường sinh thái tươi đẹp nơi đây. Cuộc sống người Na'Vi bị đe doạ và họ đã buộc phải đứng lên chống lại đoàn người của Jake. Trong quá trình thâm nhập vào cộng đồng bản xứ, Jake gặp Neytiri, một cô gái Na'Vi và đem lòng cảm mến cô. Chính vì vậy, anh bị mắc kẹt giữa một bên là lực lượng công nghiệp - quân sự của trái đất xâm lăng Paronda, một bên là người dân Na'Vi. Và trong cuộc chiến khốc liệt để quyết định vận mệnh thế giới này, anh buộc phải lựa chọn đứng về một phe.

Download:


2Gb/1part
http://megashare.vn/dl.php/2771595
http://megashare.vn/dl.php/2771668
http://megashare.vn/dl.php/2771626
http://megashare.vn/dl.php/2771748
http://megashare.vn/dl.php/2771725
http://megashare.vn/dl.php/2771767
http://megashare.vn/dl.php/2771790

Or
mediafire.com ?1p0qqbi6ravua

Or

megaupload.com/?f=3R47DIO8

Or

hotfile.com/list/1124089/3ff5596

File audio thuyết minh Tiếng Việt:
mediafire.com ?5852y15mp91imui


MS:vn-zoom.com
MF: hacker94


Hướng dẫn xem phim này với pm Stereoscopic Player:

Đầu tiên là Download StereoscopicPlayer 1.6.6:
mediafire.com ?1oxkdyy2eg2fhvo

Sau khi mở phim, trong File -> Layout -> Side by side, Right image First.



Trong View -> Aspect Ratio -> Haft Height.



Trong View -> Viewing Method -> Anaglyph -> Color Anaglyph Red Cyan.



Kết quả:



Ae chú ý đây là bản rip từ đĩa Bluray 3D đã phát hành, khỏi lo về chất lượng phim mình đã test. Xem bằng Kính 3D Red-Cyan
Password: www.mediafirehd.com Lưu ý: BẠN NÊN KIỂM TRA TẤT CẢ CÁC LINK, BẢO ĐẢM TẤT CẢ CÒN SỐNG TRƯỚC KHI BẮT ĐẦU TẢI.

Về Đầu Trang  Thông điệp [Trang 1 trong tổng số 1 trang]

Permissions in this forum:
Bạn không có quyền trả lời bài viết